<?xml version="1.0" standalone="no"?>
<!DOCTYPE svg PUBLIC "-//W3C//DTD SVG 1.1//EN" "http://www.w3.org/Graphics/SVG/1.1/DTD/svg11.dtd" >
<svg xmlns="http://www.w3.org/2000/svg">
<metadata></metadata>
<defs>
<font id="dotsfontregular" horiz-adv-x="1200" >
<font-face units-per-em="1000" ascent="750" descent="-250" />
<missing-glyph horiz-adv-x="500" />
<glyph horiz-adv-x="0" />
<glyph horiz-adv-x="333" />
<glyph unicode=" " />
<glyph unicode="!" d="M943 350q0 145 -100.5 241.5t-252.5 96.5q-153 0 -256.5 -99.5t-103.5 -245.5q0 -145 100 -241t254 -96t256.5 98.5t102.5 245.5z" />
<glyph unicode="&#x22;" d="M943 350q0 145 -100.5 241.5t-252.5 96.5q-153 0 -256.5 -99.5t-103.5 -245.5q0 -145 100 -241t254 -96t256.5 98.5t102.5 245.5z" />
<glyph unicode="#" d="M943 350q0 145 -100.5 241.5t-252.5 96.5q-153 0 -256.5 -99.5t-103.5 -245.5q0 -145 100 -241t254 -96t256.5 98.5t102.5 245.5z" />
<glyph unicode="$" d="M943 350q0 145 -100.5 241.5t-252.5 96.5q-153 0 -256.5 -99.5t-103.5 -245.5q0 -145 100 -241t254 -96t256.5 98.5t102.5 245.5z" />
<glyph unicode="%" d="M943 350q0 145 -100.5 241.5t-252.5 96.5q-153 0 -256.5 -99.5t-103.5 -245.5q0 -145 100 -241t254 -96t256.5 98.5t102.5 245.5z" />
<glyph unicode="&#x26;" d="M943 350q0 145 -100.5 241.5t-252.5 96.5q-153 0 -256.5 -99.5t-103.5 -245.5q0 -145 100 -241t254 -96t256.5 98.5t102.5 245.5z" />
<glyph unicode="'" d="M943 350q0 145 -100.5 241.5t-252.5 96.5q-153 0 -256.5 -99.5t-103.5 -245.5q0 -145 100 -241t254 -96t256.5 98.5t102.5 245.5z" />
<glyph unicode="(" d="M943 350q0 145 -100.5 241.5t-252.5 96.5q-153 0 -256.5 -99.5t-103.5 -245.5q0 -145 100 -241t254 -96t256.5 98.5t102.5 245.5z" />
<glyph unicode=")" d="M943 350q0 145 -100.5 241.5t-252.5 96.5q-153 0 -256.5 -99.5t-103.5 -245.5q0 -145 100 -241t254 -96t256.5 98.5t102.5 245.5z" />
<glyph unicode="*" d="M943 350q0 145 -100.5 241.5t-252.5 96.5q-153 0 -256.5 -99.5t-103.5 -245.5q0 -145 100 -241t254 -96t256.5 98.5t102.5 245.5z" />
<glyph unicode="+" d="M943 350q0 145 -100.5 241.5t-252.5 96.5q-153 0 -256.5 -99.5t-103.5 -245.5q0 -145 100 -241t254 -96t256.5 98.5t102.5 245.5z" />
<glyph unicode="," d="M943 350q0 145 -100.5 241.5t-252.5 96.5q-153 0 -256.5 -99.5t-103.5 -245.5q0 -145 100 -241t254 -96t256.5 98.5t102.5 245.5z" />
<glyph unicode="-" d="M943 350q0 145 -100.5 241.5t-252.5 96.5q-153 0 -256.5 -99.5t-103.5 -245.5q0 -145 100 -241t254 -96t256.5 98.5t102.5 245.5z" />
<glyph unicode="." d="M943 350q0 145 -100.5 241.5t-252.5 96.5q-153 0 -256.5 -99.5t-103.5 -245.5q0 -145 100 -241t254 -96t256.5 98.5t102.5 245.5z" />
<glyph unicode="/" d="M943 350q0 145 -100.5 241.5t-252.5 96.5q-153 0 -256.5 -99.5t-103.5 -245.5q0 -145 100 -241t254 -96t256.5 98.5t102.5 245.5z" />
<glyph unicode="0" d="M943 350q0 145 -100.5 241.5t-252.5 96.5q-153 0 -256.5 -99.5t-103.5 -245.5q0 -145 100 -241t254 -96t256.5 98.5t102.5 245.5z" />
<glyph unicode="1" d="M943 350q0 145 -100.5 241.5t-252.5 96.5q-153 0 -256.5 -99.5t-103.5 -245.5q0 -145 100 -241t254 -96t256.5 98.5t102.5 245.5z" />
<glyph unicode="2" d="M943 350q0 145 -100.5 241.5t-252.5 96.5q-153 0 -256.5 -99.5t-103.5 -245.5q0 -145 100 -241t254 -96t256.5 98.5t102.5 245.5z" />
<glyph unicode="3" d="M943 350q0 145 -100.5 241.5t-252.5 96.5q-153 0 -256.5 -99.5t-103.5 -245.5q0 -145 100 -241t254 -96t256.5 98.5t102.5 245.5z" />
<glyph unicode="4" d="M943 350q0 145 -100.5 241.5t-252.5 96.5q-153 0 -256.5 -99.5t-103.5 -245.5q0 -145 100 -241t254 -96t256.5 98.5t102.5 245.5z" />
<glyph unicode="5" d="M943 350q0 145 -100.5 241.5t-252.5 96.5q-153 0 -256.5 -99.5t-103.5 -245.5q0 -145 100 -241t254 -96t256.5 98.5t102.5 245.5z" />
<glyph unicode="6" d="M943 350q0 145 -100.5 241.5t-252.5 96.5q-153 0 -256.5 -99.5t-103.5 -245.5q0 -145 100 -241t254 -96t256.5 98.5t102.5 245.5z" />
<glyph unicode="7" d="M943 350q0 145 -100.5 241.5t-252.5 96.5q-153 0 -256.5 -99.5t-103.5 -245.5q0 -145 100 -241t254 -96t256.5 98.5t102.5 245.5z" />
<glyph unicode="8" d="M943 350q0 145 -100.5 241.5t-252.5 96.5q-153 0 -256.5 -99.5t-103.5 -245.5q0 -145 100 -241t254 -96t256.5 98.5t102.5 245.5z" />
<glyph unicode="9" d="M943 350q0 145 -100.5 241.5t-252.5 96.5q-153 0 -256.5 -99.5t-103.5 -245.5q0 -145 100 -241t254 -96t256.5 98.5t102.5 245.5z" />
<glyph unicode=":" d="M943 350q0 145 -100.5 241.5t-252.5 96.5q-153 0 -256.5 -99.5t-103.5 -245.5q0 -145 100 -241t254 -96t256.5 98.5t102.5 245.5z" />
<glyph unicode=";" d="M943 350q0 145 -100.5 241.5t-252.5 96.5q-153 0 -256.5 -99.5t-103.5 -245.5q0 -145 100 -241t254 -96t256.5 98.5t102.5 245.5z" />
<glyph unicode="&#x3c;" d="M943 350q0 145 -100.5 241.5t-252.5 96.5q-153 0 -256.5 -99.5t-103.5 -245.5q0 -145 100 -241t254 -96t256.5 98.5t102.5 245.5z" />
<glyph unicode="=" d="M943 350q0 145 -100.5 241.5t-252.5 96.5q-153 0 -256.5 -99.5t-103.5 -245.5q0 -145 100 -241t254 -96t256.5 98.5t102.5 245.5z" />
<glyph unicode="&#x3e;" d="M943 350q0 145 -100.5 241.5t-252.5 96.5q-153 0 -256.5 -99.5t-103.5 -245.5q0 -145 100 -241t254 -96t256.5 98.5t102.5 245.5z" />
<glyph unicode="?" d="M943 350q0 145 -100.5 241.5t-252.5 96.5q-153 0 -256.5 -99.5t-103.5 -245.5q0 -145 100 -241t254 -96t256.5 98.5t102.5 245.5z" />
<glyph unicode="@" d="M943 350q0 145 -100.5 241.5t-252.5 96.5q-153 0 -256.5 -99.5t-103.5 -245.5q0 -145 100 -241t254 -96t256.5 98.5t102.5 245.5z" />
<glyph unicode="A" d="M943 350q0 145 -100.5 241.5t-252.5 96.5q-153 0 -256.5 -99.5t-103.5 -245.5q0 -145 100 -241t254 -96t256.5 98.5t102.5 245.5z" />
<glyph unicode="B" d="M943 350q0 145 -100.5 241.5t-252.5 96.5q-153 0 -256.5 -99.5t-103.5 -245.5q0 -145 100 -241t254 -96t256.5 98.5t102.5 245.5z" />
<glyph unicode="C" d="M943 350q0 145 -100.5 241.5t-252.5 96.5q-153 0 -256.5 -99.5t-103.5 -245.5q0 -145 100 -241t254 -96t256.5 98.5t102.5 245.5z" />
<glyph unicode="D" d="M943 350q0 145 -100.5 241.5t-252.5 96.5q-153 0 -256.5 -99.5t-103.5 -245.5q0 -145 100 -241t254 -96t256.5 98.5t102.5 245.5z" />
<glyph unicode="E" d="M943 350q0 145 -100.5 241.5t-252.5 96.5q-153 0 -256.5 -99.5t-103.5 -245.5q0 -145 100 -241t254 -96t256.5 98.5t102.5 245.5z" />
<glyph unicode="F" d="M943 350q0 145 -100.5 241.5t-252.5 96.5q-153 0 -256.5 -99.5t-103.5 -245.5q0 -145 100 -241t254 -96t256.5 98.5t102.5 245.5z" />
<glyph unicode="G" d="M943 350q0 145 -100.5 241.5t-252.5 96.5q-153 0 -256.5 -99.5t-103.5 -245.5q0 -145 100 -241t254 -96t256.5 98.5t102.5 245.5z" />
<glyph unicode="H" d="M943 350q0 145 -100.5 241.5t-252.5 96.5q-153 0 -256.5 -99.5t-103.5 -245.5q0 -145 100 -241t254 -96t256.5 98.5t102.5 245.5z" />
<glyph unicode="I" d="M943 350q0 145 -100.5 241.5t-252.5 96.5q-153 0 -256.5 -99.5t-103.5 -245.5q0 -145 100 -241t254 -96t256.5 98.5t102.5 245.5z" />
<glyph unicode="J" d="M943 350q0 145 -100.5 241.5t-252.5 96.5q-153 0 -256.5 -99.5t-103.5 -245.5q0 -145 100 -241t254 -96t256.5 98.5t102.5 245.5z" />
<glyph unicode="K" d="M943 350q0 145 -100.5 241.5t-252.5 96.5q-153 0 -256.5 -99.5t-103.5 -245.5q0 -145 100 -241t254 -96t256.5 98.5t102.5 245.5z" />
<glyph unicode="L" d="M943 350q0 145 -100.5 241.5t-252.5 96.5q-153 0 -256.5 -99.5t-103.5 -245.5q0 -145 100 -241t254 -96t256.5 98.5t102.5 245.5z" />
<glyph unicode="M" d="M943 350q0 145 -100.5 241.5t-252.5 96.5q-153 0 -256.5 -99.5t-103.5 -245.5q0 -145 100 -241t254 -96t256.5 98.5t102.5 245.5z" />
<glyph unicode="N" d="M943 350q0 145 -100.5 241.5t-252.5 96.5q-153 0 -256.5 -99.5t-103.5 -245.5q0 -145 100 -241t254 -96t256.5 98.5t102.5 245.5z" />
<glyph unicode="O" d="M943 350q0 145 -100.5 241.5t-252.5 96.5q-153 0 -256.5 -99.5t-103.5 -245.5q0 -145 100 -241t254 -96t256.5 98.5t102.5 245.5z" />
<glyph unicode="P" d="M943 350q0 145 -100.5 241.5t-252.5 96.5q-153 0 -256.5 -99.5t-103.5 -245.5q0 -145 100 -241t254 -96t256.5 98.5t102.5 245.5z" />
<glyph unicode="Q" d="M943 350q0 145 -100.5 241.5t-252.5 96.5q-153 0 -256.5 -99.5t-103.5 -245.5q0 -145 100 -241t254 -96t256.5 98.5t102.5 245.5z" />
<glyph unicode="R" d="M943 350q0 145 -100.5 241.5t-252.5 96.5q-153 0 -256.5 -99.5t-103.5 -245.5q0 -145 100 -241t254 -96t256.5 98.5t102.5 245.5z" />
<glyph unicode="S" d="M943 350q0 145 -100.5 241.5t-252.5 96.5q-153 0 -256.5 -99.5t-103.5 -245.5q0 -145 100 -241t254 -96t256.5 98.5t102.5 245.5z" />
<glyph unicode="T" d="M943 350q0 145 -100.5 241.5t-252.5 96.5q-153 0 -256.5 -99.5t-103.5 -245.5q0 -145 100 -241t254 -96t256.5 98.5t102.5 245.5z" />
<glyph unicode="U" d="M943 350q0 145 -100.5 241.5t-252.5 96.5q-153 0 -256.5 -99.5t-103.5 -245.5q0 -145 100 -241t254 -96t256.5 98.5t102.5 245.5z" />
<glyph unicode="V" d="M943 350q0 145 -100.5 241.5t-252.5 96.5q-153 0 -256.5 -99.5t-103.5 -245.5q0 -145 100 -241t254 -96t256.5 98.5t102.5 245.5z" />
<glyph unicode="W" d="M943 350q0 145 -100.5 241.5t-252.5 96.5q-153 0 -256.5 -99.5t-103.5 -245.5q0 -145 100 -241t254 -96t256.5 98.5t102.5 245.5z" />
<glyph unicode="X" d="M943 350q0 145 -100.5 241.5t-252.5 96.5q-153 0 -256.5 -99.5t-103.5 -245.5q0 -145 100 -241t254 -96t256.5 98.5t102.5 245.5z" />
<glyph unicode="Y" d="M943 350q0 145 -100.5 241.5t-252.5 96.5q-153 0 -256.5 -99.5t-103.5 -245.5q0 -145 100 -241t254 -96t256.5 98.5t102.5 245.5z" />
<glyph unicode="Z" d="M943 350q0 145 -100.5 241.5t-252.5 96.5q-153 0 -256.5 -99.5t-103.5 -245.5q0 -145 100 -241t254 -96t256.5 98.5t102.5 245.5z" />
<glyph unicode="[" d="M943 350q0 145 -100.5 241.5t-252.5 96.5q-153 0 -256.5 -99.5t-103.5 -245.5q0 -145 100 -241t254 -96t256.5 98.5t102.5 245.5z" />
<glyph unicode="\" d="M943 350q0 145 -100.5 241.5t-252.5 96.5q-153 0 -256.5 -99.5t-103.5 -245.5q0 -145 100 -241t254 -96t256.5 98.5t102.5 245.5z" />
<glyph unicode="]" d="M943 350q0 145 -100.5 241.5t-252.5 96.5q-153 0 -256.5 -99.5t-103.5 -245.5q0 -145 100 -241t254 -96t256.5 98.5t102.5 245.5z" />
<glyph unicode="^" d="M943 350q0 145 -100.5 241.5t-252.5 96.5q-153 0 -256.5 -99.5t-103.5 -245.5q0 -145 100 -241t254 -96t256.5 98.5t102.5 245.5z" />
<glyph unicode="_" d="M943 350q0 145 -100.5 241.5t-252.5 96.5q-153 0 -256.5 -99.5t-103.5 -245.5q0 -145 100 -241t254 -96t256.5 98.5t102.5 245.5z" />
<glyph unicode="`" d="M943 350q0 145 -100.5 241.5t-252.5 96.5q-153 0 -256.5 -99.5t-103.5 -245.5q0 -145 100 -241t254 -96t256.5 98.5t102.5 245.5z" />
<glyph unicode="a" d="M943 350q0 145 -100.5 241.5t-252.5 96.5q-153 0 -256.5 -99.5t-103.5 -245.5q0 -145 100 -241t254 -96t256.5 98.5t102.5 245.5z" />
<glyph unicode="b" d="M943 350q0 145 -100.5 241.5t-252.5 96.5q-153 0 -256.5 -99.5t-103.5 -245.5q0 -145 100 -241t254 -96t256.5 98.5t102.5 245.5z" />
<glyph unicode="c" d="M943 350q0 145 -100.5 241.5t-252.5 96.5q-153 0 -256.5 -99.5t-103.5 -245.5q0 -145 100 -241t254 -96t256.5 98.5t102.5 245.5z" />
<glyph unicode="d" d="M943 350q0 145 -100.5 241.5t-252.5 96.5q-153 0 -256.5 -99.5t-103.5 -245.5q0 -145 100 -241t254 -96t256.5 98.5t102.5 245.5z" />
<glyph unicode="e" d="M943 350q0 145 -100.5 241.5t-252.5 96.5q-153 0 -256.5 -99.5t-103.5 -245.5q0 -145 100 -241t254 -96t256.5 98.5t102.5 245.5z" />
<glyph unicode="f" d="M943 350q0 145 -100.5 241.5t-252.5 96.5q-153 0 -256.5 -99.5t-103.5 -245.5q0 -145 100 -241t254 -96t256.5 98.5t102.5 245.5z" />
<glyph unicode="g" d="M943 350q0 145 -100.5 241.5t-252.5 96.5q-153 0 -256.5 -99.5t-103.5 -245.5q0 -145 100 -241t254 -96t256.5 98.5t102.5 245.5z" />
<glyph unicode="h" d="M943 350q0 145 -100.5 241.5t-252.5 96.5q-153 0 -256.5 -99.5t-103.5 -245.5q0 -145 100 -241t254 -96t256.5 98.5t102.5 245.5z" />
<glyph unicode="i" d="M943 350q0 145 -100.5 241.5t-252.5 96.5q-153 0 -256.5 -99.5t-103.5 -245.5q0 -145 100 -241t254 -96t256.5 98.5t102.5 245.5z" />
<glyph unicode="j" d="M943 350q0 145 -100.5 241.5t-252.5 96.5q-153 0 -256.5 -99.5t-103.5 -245.5q0 -145 100 -241t254 -96t256.5 98.5t102.5 245.5z" />
<glyph unicode="k" d="M943 350q0 145 -100.5 241.5t-252.5 96.5q-153 0 -256.5 -99.5t-103.5 -245.5q0 -145 100 -241t254 -96t256.5 98.5t102.5 245.5z" />
<glyph unicode="l" d="M943 350q0 145 -100.5 241.5t-252.5 96.5q-153 0 -256.5 -99.5t-103.5 -245.5q0 -145 100 -241t254 -96t256.5 98.5t102.5 245.5z" />
<glyph unicode="m" d="M943 350q0 145 -100.5 241.5t-252.5 96.5q-153 0 -256.5 -99.5t-103.5 -245.5q0 -145 100 -241t254 -96t256.5 98.5t102.5 245.5z" />
<glyph unicode="n" d="M943 350q0 145 -100.5 241.5t-252.5 96.5q-153 0 -256.5 -99.5t-103.5 -245.5q0 -145 100 -241t254 -96t256.5 98.5t102.5 245.5z" />
<glyph unicode="o" d="M943 350q0 145 -100.5 241.5t-252.5 96.5q-153 0 -256.5 -99.5t-103.5 -245.5q0 -145 100 -241t254 -96t256.5 98.5t102.5 245.5z" />
<glyph unicode="p" d="M943 350q0 145 -100.5 241.5t-252.5 96.5q-153 0 -256.5 -99.5t-103.5 -245.5q0 -145 100 -241t254 -96t256.5 98.5t102.5 245.5z" />
<glyph unicode="q" d="M943 350q0 145 -100.5 241.5t-252.5 96.5q-153 0 -256.5 -99.5t-103.5 -245.5q0 -145 100 -241t254 -96t256.5 98.5t102.5 245.5z" />
<glyph unicode="r" d="M943 350q0 145 -100.5 241.5t-252.5 96.5q-153 0 -256.5 -99.5t-103.5 -245.5q0 -145 100 -241t254 -96t256.5 98.5t102.5 245.5z" />
<glyph unicode="s" d="M943 350q0 145 -100.5 241.5t-252.5 96.5q-153 0 -256.5 -99.5t-103.5 -245.5q0 -145 100 -241t254 -96t256.5 98.5t102.5 245.5z" />
<glyph unicode="t" d="M943 350q0 145 -100.5 241.5t-252.5 96.5q-153 0 -256.5 -99.5t-103.5 -245.5q0 -145 100 -241t254 -96t256.5 98.5t102.5 245.5z" />
<glyph unicode="u" d="M943 350q0 145 -100.5 241.5t-252.5 96.5q-153 0 -256.5 -99.5t-103.5 -245.5q0 -145 100 -241t254 -96t256.5 98.5t102.5 245.5z" />
<glyph unicode="v" d="M943 350q0 145 -100.5 241.5t-252.5 96.5q-153 0 -256.5 -99.5t-103.5 -245.5q0 -145 100 -241t254 -96t256.5 98.5t102.5 245.5z" />
<glyph unicode="w" d="M943 350q0 145 -100.5 241.5t-252.5 96.5q-153 0 -256.5 -99.5t-103.5 -245.5q0 -145 100 -241t254 -96t256.5 98.5t102.5 245.5z" />
<glyph unicode="x" d="M943 350q0 145 -100.5 241.5t-252.5 96.5q-153 0 -256.5 -99.5t-103.5 -245.5q0 -145 100 -241t254 -96t256.5 98.5t102.5 245.5z" />
<glyph unicode="y" d="M943 350q0 145 -100.5 241.5t-252.5 96.5q-153 0 -256.5 -99.5t-103.5 -245.5q0 -145 100 -241t254 -96t256.5 98.5t102.5 245.5z" />
<glyph unicode="z" d="M943 350q0 145 -100.5 241.5t-252.5 96.5q-153 0 -256.5 -99.5t-103.5 -245.5q0 -145 100 -241t254 -96t256.5 98.5t102.5 245.5z" />
<glyph unicode="{" d="M943 350q0 145 -100.5 241.5t-252.5 96.5q-153 0 -256.5 -99.5t-103.5 -245.5q0 -145 100 -241t254 -96t256.5 98.5t102.5 245.5z" />
<glyph unicode="|" d="M943 350q0 145 -100.5 241.5t-252.5 96.5q-153 0 -256.5 -99.5t-103.5 -245.5q0 -145 100 -241t254 -96t256.5 98.5t102.5 245.5z" />
<glyph unicode="}" d="M943 350q0 145 -100.5 241.5t-252.5 96.5q-153 0 -256.5 -99.5t-103.5 -245.5q0 -145 100 -241t254 -96t256.5 98.5t102.5 245.5z" />
<glyph unicode="~" d="M943 350q0 145 -100.5 241.5t-252.5 96.5q-153 0 -256.5 -99.5t-103.5 -245.5q0 -145 100 -241t254 -96t256.5 98.5t102.5 245.5z" />
<glyph unicode="&#xa0;" />
<glyph unicode="&#xa1;" d="M943 350q0 145 -100.5 241.5t-252.5 96.5q-153 0 -256.5 -99.5t-103.5 -245.5q0 -145 100 -241t254 -96t256.5 98.5t102.5 245.5z" />
<glyph unicode="&#xa2;" d="M943 350q0 145 -100.5 241.5t-252.5 96.5q-153 0 -256.5 -99.5t-103.5 -245.5q0 -145 100 -241t254 -96t256.5 98.5t102.5 245.5z" />
<glyph unicode="&#xa3;" d="M943 350q0 145 -100.5 241.5t-252.5 96.5q-153 0 -256.5 -99.5t-103.5 -245.5q0 -145 100 -241t254 -96t256.5 98.5t102.5 245.5z" />
<glyph unicode="&#xa4;" d="M943 350q0 145 -100.5 241.5t-252.5 96.5q-153 0 -256.5 -99.5t-103.5 -245.5q0 -145 100 -241t254 -96t256.5 98.5t102.5 245.5z" />
<glyph unicode="&#xa5;" d="M943 350q0 145 -100.5 241.5t-252.5 96.5q-153 0 -256.5 -99.5t-103.5 -245.5q0 -145 100 -241t254 -96t256.5 98.5t102.5 245.5z" />
<glyph unicode="&#xa6;" d="M943 350q0 145 -100.5 241.5t-252.5 96.5q-153 0 -256.5 -99.5t-103.5 -245.5q0 -145 100 -241t254 -96t256.5 98.5t102.5 245.5z" />
<glyph unicode="&#xa7;" d="M943 350q0 145 -100.5 241.5t-252.5 96.5q-153 0 -256.5 -99.5t-103.5 -245.5q0 -145 100 -241t254 -96t256.5 98.5t102.5 245.5z" />
<glyph unicode="&#xa8;" d="M943 350q0 145 -100.5 241.5t-252.5 96.5q-153 0 -256.5 -99.5t-103.5 -245.5q0 -145 100 -241t254 -96t256.5 98.5t102.5 245.5z" />
<glyph unicode="&#xa9;" d="M943 350q0 145 -100.5 241.5t-252.5 96.5q-153 0 -256.5 -99.5t-103.5 -245.5q0 -145 100 -241t254 -96t256.5 98.5t102.5 245.5z" />
<glyph unicode="&#xaa;" d="M943 350q0 145 -100.5 241.5t-252.5 96.5q-153 0 -256.5 -99.5t-103.5 -245.5q0 -145 100 -241t254 -96t256.5 98.5t102.5 245.5z" />
<glyph unicode="&#xab;" d="M943 350q0 145 -100.5 241.5t-252.5 96.5q-153 0 -256.5 -99.5t-103.5 -245.5q0 -145 100 -241t254 -96t256.5 98.5t102.5 245.5z" />
<glyph unicode="&#xac;" d="M943 350q0 145 -100.5 241.5t-252.5 96.5q-153 0 -256.5 -99.5t-103.5 -245.5q0 -145 100 -241t254 -96t256.5 98.5t102.5 245.5z" />
<glyph unicode="&#xad;" d="M943 350q0 145 -100.5 241.5t-252.5 96.5q-153 0 -256.5 -99.5t-103.5 -245.5q0 -145 100 -241t254 -96t256.5 98.5t102.5 245.5z" />
<glyph unicode="&#xae;" d="M943 350q0 145 -100.5 241.5t-252.5 96.5q-153 0 -256.5 -99.5t-103.5 -245.5q0 -145 100 -241t254 -96t256.5 98.5t102.5 245.5z" />
<glyph unicode="&#xaf;" d="M943 350q0 145 -100.5 241.5t-252.5 96.5q-153 0 -256.5 -99.5t-103.5 -245.5q0 -145 100 -241t254 -96t256.5 98.5t102.5 245.5z" />
<glyph unicode="&#xb0;" d="M943 350q0 145 -100.5 241.5t-252.5 96.5q-153 0 -256.5 -99.5t-103.5 -245.5q0 -145 100 -241t254 -96t256.5 98.5t102.5 245.5z" />
<glyph unicode="&#xb1;" d="M943 350q0 145 -100.5 241.5t-252.5 96.5q-153 0 -256.5 -99.5t-103.5 -245.5q0 -145 100 -241t254 -96t256.5 98.5t102.5 245.5z" />
<glyph unicode="&#xb2;" d="M943 350q0 145 -100.5 241.5t-252.5 96.5q-153 0 -256.5 -99.5t-103.5 -245.5q0 -145 100 -241t254 -96t256.5 98.5t102.5 245.5z" />
<glyph unicode="&#xb3;" d="M943 350q0 145 -100.5 241.5t-252.5 96.5q-153 0 -256.5 -99.5t-103.5 -245.5q0 -145 100 -241t254 -96t256.5 98.5t102.5 245.5z" />
<glyph unicode="&#xb4;" d="M943 350q0 145 -100.5 241.5t-252.5 96.5q-153 0 -256.5 -99.5t-103.5 -245.5q0 -145 100 -241t254 -96t256.5 98.5t102.5 245.5z" />
<glyph unicode="&#xb6;" d="M943 350q0 145 -100.5 241.5t-252.5 96.5q-153 0 -256.5 -99.5t-103.5 -245.5q0 -145 100 -241t254 -96t256.5 98.5t102.5 245.5z" />
<glyph unicode="&#xb7;" d="M943 350q0 145 -100.5 241.5t-252.5 96.5q-153 0 -256.5 -99.5t-103.5 -245.5q0 -145 100 -241t254 -96t256.5 98.5t102.5 245.5z" />
<glyph unicode="&#xb8;" d="M943 350q0 145 -100.5 241.5t-252.5 96.5q-153 0 -256.5 -99.5t-103.5 -245.5q0 -145 100 -241t254 -96t256.5 98.5t102.5 245.5z" />
<glyph unicode="&#xb9;" d="M943 350q0 145 -100.5 241.5t-252.5 96.5q-153 0 -256.5 -99.5t-103.5 -245.5q0 -145 100 -241t254 -96t256.5 98.5t102.5 245.5z" />
<glyph unicode="&#xba;" d="M943 350q0 145 -100.5 241.5t-252.5 96.5q-153 0 -256.5 -99.5t-103.5 -245.5q0 -145 100 -241t254 -96t256.5 98.5t102.5 245.5z" />
<glyph unicode="&#xbb;" d="M943 350q0 145 -100.5 241.5t-252.5 96.5q-153 0 -256.5 -99.5t-103.5 -245.5q0 -145 100 -241t254 -96t256.5 98.5t102.5 245.5z" />
<glyph unicode="&#xbc;" d="M943 350q0 145 -100.5 241.5t-252.5 96.5q-153 0 -256.5 -99.5t-103.5 -245.5q0 -145 100 -241t254 -96t256.5 98.5t102.5 245.5z" />
<glyph unicode="&#xbd;" d="M943 350q0 145 -100.5 241.5t-252.5 96.5q-153 0 -256.5 -99.5t-103.5 -245.5q0 -145 100 -241t254 -96t256.5 98.5t102.5 245.5z" />
<glyph unicode="&#xbe;" d="M943 350q0 145 -100.5 241.5t-252.5 96.5q-153 0 -256.5 -99.5t-103.5 -245.5q0 -145 100 -241t254 -96t256.5 98.5t102.5 245.5z" />
<glyph unicode="&#xbf;" d="M943 350q0 145 -100.5 241.5t-252.5 96.5q-153 0 -256.5 -99.5t-103.5 -245.5q0 -145 100 -241t254 -96t256.5 98.5t102.5 245.5z" />
<glyph unicode="&#xc0;" d="M943 350q0 145 -100.5 241.5t-252.5 96.5q-153 0 -256.5 -99.5t-103.5 -245.5q0 -145 100 -241t254 -96t256.5 98.5t102.5 245.5z" />
<glyph unicode="&#xc1;" d="M943 350q0 145 -100.5 241.5t-252.5 96.5q-153 0 -256.5 -99.5t-103.5 -245.5q0 -145 100 -241t254 -96t256.5 98.5t102.5 245.5z" />
<glyph unicode="&#xc2;" d="M943 350q0 145 -100.5 241.5t-252.5 96.5q-153 0 -256.5 -99.5t-103.5 -245.5q0 -145 100 -241t254 -96t256.5 98.5t102.5 245.5z" />
<glyph unicode="&#xc3;" d="M943 350q0 145 -100.5 241.5t-252.5 96.5q-153 0 -256.5 -99.5t-103.5 -245.5q0 -145 100 -241t254 -96t256.5 98.5t102.5 245.5z" />
<glyph unicode="&#xc4;" d="M943 350q0 145 -100.5 241.5t-252.5 96.5q-153 0 -256.5 -99.5t-103.5 -245.5q0 -145 100 -241t254 -96t256.5 98.5t102.5 245.5z" />
<glyph unicode="&#xc5;" d="M943 350q0 145 -100.5 241.5t-252.5 96.5q-153 0 -256.5 -99.5t-103.5 -245.5q0 -145 100 -241t254 -96t256.5 98.5t102.5 245.5z" />
<glyph unicode="&#xc6;" d="M943 350q0 145 -100.5 241.5t-252.5 96.5q-153 0 -256.5 -99.5t-103.5 -245.5q0 -145 100 -241t254 -96t256.5 98.5t102.5 245.5z" />
<glyph unicode="&#xc7;" d="M943 350q0 145 -100.5 241.5t-252.5 96.5q-153 0 -256.5 -99.5t-103.5 -245.5q0 -145 100 -241t254 -96t256.5 98.5t102.5 245.5z" />
<glyph unicode="&#xc8;" d="M943 350q0 145 -100.5 241.5t-252.5 96.5q-153 0 -256.5 -99.5t-103.5 -245.5q0 -145 100 -241t254 -96t256.5 98.5t102.5 245.5z" />
<glyph unicode="&#xc9;" d="M943 350q0 145 -100.5 241.5t-252.5 96.5q-153 0 -256.5 -99.5t-103.5 -245.5q0 -145 100 -241t254 -96t256.5 98.5t102.5 245.5z" />
<glyph unicode="&#xca;" d="M943 350q0 145 -100.5 241.5t-252.5 96.5q-153 0 -256.5 -99.5t-103.5 -245.5q0 -145 100 -241t254 -96t256.5 98.5t102.5 245.5z" />
<glyph unicode="&#xcb;" d="M943 350q0 145 -100.5 241.5t-252.5 96.5q-153 0 -256.5 -99.5t-103.5 -245.5q0 -145 100 -241t254 -96t256.5 98.5t102.5 245.5z" />
<glyph unicode="&#xcc;" d="M943 350q0 145 -100.5 241.5t-252.5 96.5q-153 0 -256.5 -99.5t-103.5 -245.5q0 -145 100 -241t254 -96t256.5 98.5t102.5 245.5z" />
<glyph unicode="&#xcd;" d="M943 350q0 145 -100.5 241.5t-252.5 96.5q-153 0 -256.5 -99.5t-103.5 -245.5q0 -145 100 -241t254 -96t256.5 98.5t102.5 245.5z" />
<glyph unicode="&#xce;" d="M943 350q0 145 -100.5 241.5t-252.5 96.5q-153 0 -256.5 -99.5t-103.5 -245.5q0 -145 100 -241t254 -96t256.5 98.5t102.5 245.5z" />
<glyph unicode="&#xcf;" d="M943 350q0 145 -100.5 241.5t-252.5 96.5q-153 0 -256.5 -99.5t-103.5 -245.5q0 -145 100 -241t254 -96t256.5 98.5t102.5 245.5z" />
<glyph unicode="&#xd0;" d="M943 350q0 145 -100.5 241.5t-252.5 96.5q-153 0 -256.5 -99.5t-103.5 -245.5q0 -145 100 -241t254 -96t256.5 98.5t102.5 245.5z" />
<glyph unicode="&#xd1;" d="M943 350q0 145 -100.5 241.5t-252.5 96.5q-153 0 -256.5 -99.5t-103.5 -245.5q0 -145 100 -241t254 -96t256.5 98.5t102.5 245.5z" />
<glyph unicode="&#xd2;" d="M943 350q0 145 -100.5 241.5t-252.5 96.5q-153 0 -256.5 -99.5t-103.5 -245.5q0 -145 100 -241t254 -96t256.5 98.5t102.5 245.5z" />
<glyph unicode="&#xd3;" d="M943 350q0 145 -100.5 241.5t-252.5 96.5q-153 0 -256.5 -99.5t-103.5 -245.5q0 -145 100 -241t254 -96t256.5 98.5t102.5 245.5z" />
<glyph unicode="&#xd4;" d="M943 350q0 145 -100.5 241.5t-252.5 96.5q-153 0 -256.5 -99.5t-103.5 -245.5q0 -145 100 -241t254 -96t256.5 98.5t102.5 245.5z" />
<glyph unicode="&#xd5;" d="M943 350q0 145 -100.5 241.5t-252.5 96.5q-153 0 -256.5 -99.5t-103.5 -245.5q0 -145 100 -241t254 -96t256.5 98.5t102.5 245.5z" />
<glyph unicode="&#xd6;" d="M943 350q0 145 -100.5 241.5t-252.5 96.5q-153 0 -256.5 -99.5t-103.5 -245.5q0 -145 100 -241t254 -96t256.5 98.5t102.5 245.5z" />
<glyph unicode="&#xd7;" d="M943 350q0 145 -100.5 241.5t-252.5 96.5q-153 0 -256.5 -99.5t-103.5 -245.5q0 -145 100 -241t254 -96t256.5 98.5t102.5 245.5z" />
<glyph unicode="&#xd8;" d="M943 350q0 145 -100.5 241.5t-252.5 96.5q-153 0 -256.5 -99.5t-103.5 -245.5q0 -145 100 -241t254 -96t256.5 98.5t102.5 245.5z" />
<glyph unicode="&#xd9;" d="M943 350q0 145 -100.5 241.5t-252.5 96.5q-153 0 -256.5 -99.5t-103.5 -245.5q0 -145 100 -241t254 -96t256.5 98.5t102.5 245.5z" />
<glyph unicode="&#xda;" d="M943 350q0 145 -100.5 241.5t-252.5 96.5q-153 0 -256.5 -99.5t-103.5 -245.5q0 -145 100 -241t254 -96t256.5 98.5t102.5 245.5z" />
<glyph unicode="&#xdb;" d="M943 350q0 145 -100.5 241.5t-252.5 96.5q-153 0 -256.5 -99.5t-103.5 -245.5q0 -145 100 -241t254 -96t256.5 98.5t102.5 245.5z" />
<glyph unicode="&#xdc;" d="M943 350q0 145 -100.5 241.5t-252.5 96.5q-153 0 -256.5 -99.5t-103.5 -245.5q0 -145 100 -241t254 -96t256.5 98.5t102.5 245.5z" />
<glyph unicode="&#xdd;" d="M943 350q0 145 -100.5 241.5t-252.5 96.5q-153 0 -256.5 -99.5t-103.5 -245.5q0 -145 100 -241t254 -96t256.5 98.5t102.5 245.5z" />
<glyph unicode="&#xde;" d="M943 350q0 145 -100.5 241.5t-252.5 96.5q-153 0 -256.5 -99.5t-103.5 -245.5q0 -145 100 -241t254 -96t256.5 98.5t102.5 245.5z" />
<glyph unicode="&#xdf;" d="M943 350q0 145 -100.5 241.5t-252.5 96.5q-153 0 -256.5 -99.5t-103.5 -245.5q0 -145 100 -241t254 -96t256.5 98.5t102.5 245.5z" />
<glyph unicode="&#xe0;" d="M943 350q0 145 -100.5 241.5t-252.5 96.5q-153 0 -256.5 -99.5t-103.5 -245.5q0 -145 100 -241t254 -96t256.5 98.5t102.5 245.5z" />
<glyph unicode="&#xe1;" d="M943 350q0 145 -100.5 241.5t-252.5 96.5q-153 0 -256.5 -99.5t-103.5 -245.5q0 -145 100 -241t254 -96t256.5 98.5t102.5 245.5z" />
<glyph unicode="&#xe2;" d="M943 350q0 145 -100.5 241.5t-252.5 96.5q-153 0 -256.5 -99.5t-103.5 -245.5q0 -145 100 -241t254 -96t256.5 98.5t102.5 245.5z" />
<glyph unicode="&#xe3;" d="M943 350q0 145 -100.5 241.5t-252.5 96.5q-153 0 -256.5 -99.5t-103.5 -245.5q0 -145 100 -241t254 -96t256.5 98.5t102.5 245.5z" />
<glyph unicode="&#xe4;" d="M943 350q0 145 -100.5 241.5t-252.5 96.5q-153 0 -256.5 -99.5t-103.5 -245.5q0 -145 100 -241t254 -96t256.5 98.5t102.5 245.5z" />
<glyph unicode="&#xe5;" d="M943 350q0 145 -100.5 241.5t-252.5 96.5q-153 0 -256.5 -99.5t-103.5 -245.5q0 -145 100 -241t254 -96t256.5 98.5t102.5 245.5z" />
<glyph unicode="&#xe6;" d="M943 350q0 145 -100.5 241.5t-252.5 96.5q-153 0 -256.5 -99.5t-103.5 -245.5q0 -145 100 -241t254 -96t256.5 98.5t102.5 245.5z" />
<glyph unicode="&#xe7;" d="M943 350q0 145 -100.5 241.5t-252.5 96.5q-153 0 -256.5 -99.5t-103.5 -245.5q0 -145 100 -241t254 -96t256.5 98.5t102.5 245.5z" />
<glyph unicode="&#xe8;" d="M943 350q0 145 -100.5 241.5t-252.5 96.5q-153 0 -256.5 -99.5t-103.5 -245.5q0 -145 100 -241t254 -96t256.5 98.5t102.5 245.5z" />
<glyph unicode="&#xe9;" d="M943 350q0 145 -100.5 241.5t-252.5 96.5q-153 0 -256.5 -99.5t-103.5 -245.5q0 -145 100 -241t254 -96t256.5 98.5t102.5 245.5z" />
<glyph unicode="&#xea;" d="M943 350q0 145 -100.5 241.5t-252.5 96.5q-153 0 -256.5 -99.5t-103.5 -245.5q0 -145 100 -241t254 -96t256.5 98.5t102.5 245.5z" />
<glyph unicode="&#xeb;" d="M943 350q0 145 -100.5 241.5t-252.5 96.5q-153 0 -256.5 -99.5t-103.5 -245.5q0 -145 100 -241t254 -96t256.5 98.5t102.5 245.5z" />
<glyph unicode="&#xec;" d="M943 350q0 145 -100.5 241.5t-252.5 96.5q-153 0 -256.5 -99.5t-103.5 -245.5q0 -145 100 -241t254 -96t256.5 98.5t102.5 245.5z" />
<glyph unicode="&#xed;" d="M943 350q0 145 -100.5 241.5t-252.5 96.5q-153 0 -256.5 -99.5t-103.5 -245.5q0 -145 100 -241t254 -96t256.5 98.5t102.5 245.5z" />
<glyph unicode="&#xee;" d="M943 350q0 145 -100.5 241.5t-252.5 96.5q-153 0 -256.5 -99.5t-103.5 -245.5q0 -145 100 -241t254 -96t256.5 98.5t102.5 245.5z" />
<glyph unicode="&#xef;" d="M943 350q0 145 -100.5 241.5t-252.5 96.5q-153 0 -256.5 -99.5t-103.5 -245.5q0 -145 100 -241t254 -96t256.5 98.5t102.5 245.5z" />
<glyph unicode="&#xf0;" d="M943 350q0 145 -100.5 241.5t-252.5 96.5q-153 0 -256.5 -99.5t-103.5 -245.5q0 -145 100 -241t254 -96t256.5 98.5t102.5 245.5z" />
<glyph unicode="&#xf1;" d="M943 350q0 145 -100.5 241.5t-252.5 96.5q-153 0 -256.5 -99.5t-103.5 -245.5q0 -145 100 -241t254 -96t256.5 98.5t102.5 245.5z" />
<glyph unicode="&#xf2;" d="M943 350q0 145 -100.5 241.5t-252.5 96.5q-153 0 -256.5 -99.5t-103.5 -245.5q0 -145 100 -241t254 -96t256.5 98.5t102.5 245.5z" />
<glyph unicode="&#xf3;" d="M943 350q0 145 -100.5 241.5t-252.5 96.5q-153 0 -256.5 -99.5t-103.5 -245.5q0 -145 100 -241t254 -96t256.5 98.5t102.5 245.5z" />
<glyph unicode="&#xf4;" d="M943 350q0 145 -100.5 241.5t-252.5 96.5q-153 0 -256.5 -99.5t-103.5 -245.5q0 -145 100 -241t254 -96t256.5 98.5t102.5 245.5z" />
<glyph unicode="&#xf5;" d="M943 350q0 145 -100.5 241.5t-252.5 96.5q-153 0 -256.5 -99.5t-103.5 -245.5q0 -145 100 -241t254 -96t256.5 98.5t102.5 245.5z" />
<glyph unicode="&#xf6;" d="M943 350q0 145 -100.5 241.5t-252.5 96.5q-153 0 -256.5 -99.5t-103.5 -245.5q0 -145 100 -241t254 -96t256.5 98.5t102.5 245.5z" />
<glyph unicode="&#xf7;" d="M943 350q0 145 -100.5 241.5t-252.5 96.5q-153 0 -256.5 -99.5t-103.5 -245.5q0 -145 100 -241t254 -96t256.5 98.5t102.5 245.5z" />
<glyph unicode="&#xf8;" d="M943 350q0 145 -100.5 241.5t-252.5 96.5q-153 0 -256.5 -99.5t-103.5 -245.5q0 -145 100 -241t254 -96t256.5 98.5t102.5 245.5z" />
<glyph unicode="&#xf9;" d="M943 350q0 145 -100.5 241.5t-252.5 96.5q-153 0 -256.5 -99.5t-103.5 -245.5q0 -145 100 -241t254 -96t256.5 98.5t102.5 245.5z" />
<glyph unicode="&#xfa;" d="M943 350q0 145 -100.5 241.5t-252.5 96.5q-153 0 -256.5 -99.5t-103.5 -245.5q0 -145 100 -241t254 -96t256.5 98.5t102.5 245.5z" />
<glyph unicode="&#xfb;" d="M943 350q0 145 -100.5 241.5t-252.5 96.5q-153 0 -256.5 -99.5t-103.5 -245.5q0 -145 100 -241t254 -96t256.5 98.5t102.5 245.5z" />
<glyph unicode="&#xfc;" d="M943 350q0 145 -100.5 241.5t-252.5 96.5q-153 0 -256.5 -99.5t-103.5 -245.5q0 -145 100 -241t254 -96t256.5 98.5t102.5 245.5z" />
<glyph unicode="&#xfd;" d="M943 350q0 145 -100.5 241.5t-252.5 96.5q-153 0 -256.5 -99.5t-103.5 -245.5q0 -145 100 -241t254 -96t256.5 98.5t102.5 245.5z" />
<glyph unicode="&#xfe;" d="M943 350q0 145 -100.5 241.5t-252.5 96.5q-153 0 -256.5 -99.5t-103.5 -245.5q0 -145 100 -241t254 -96t256.5 98.5t102.5 245.5z" />
<glyph unicode="&#xff;" d="M943 350q0 145 -100.5 241.5t-252.5 96.5q-153 0 -256.5 -99.5t-103.5 -245.5q0 -145 100 -241t254 -96t256.5 98.5t102.5 245.5z" />
<glyph unicode="&#x2c6;" d="M943 350q0 145 -100.5 241.5t-252.5 96.5q-153 0 -256.5 -99.5t-103.5 -245.5q0 -145 100 -241t254 -96t256.5 98.5t102.5 245.5z" />
<glyph unicode="&#x2dc;" d="M943 350q0 145 -100.5 241.5t-252.5 96.5q-153 0 -256.5 -99.5t-103.5 -245.5q0 -145 100 -241t254 -96t256.5 98.5t102.5 245.5z" />
<glyph unicode="&#x2000;" horiz-adv-x="345" />
<glyph unicode="&#x2001;" horiz-adv-x="690" />
<glyph unicode="&#x2002;" horiz-adv-x="345" />
<glyph unicode="&#x2003;" horiz-adv-x="690" />
<glyph unicode="&#x2004;" horiz-adv-x="230" />
<glyph unicode="&#x2005;" horiz-adv-x="172" />
<glyph unicode="&#x2006;" horiz-adv-x="115" />
<glyph unicode="&#x2007;" horiz-adv-x="115" />
<glyph unicode="&#x2008;" horiz-adv-x="86" />
<glyph unicode="&#x2009;" horiz-adv-x="138" />
<glyph unicode="&#x200a;" horiz-adv-x="38" />
<glyph unicode="&#x2010;" d="M943 350q0 145 -100.5 241.5t-252.5 96.5q-153 0 -256.5 -99.5t-103.5 -245.5q0 -145 100 -241t254 -96t256.5 98.5t102.5 245.5z" />
<glyph unicode="&#x2011;" d="M943 350q0 145 -100.5 241.5t-252.5 96.5q-153 0 -256.5 -99.5t-103.5 -245.5q0 -145 100 -241t254 -96t256.5 98.5t102.5 245.5z" />
<glyph unicode="&#x2012;" d="M943 350q0 145 -100.5 241.5t-252.5 96.5q-153 0 -256.5 -99.5t-103.5 -245.5q0 -145 100 -241t254 -96t256.5 98.5t102.5 245.5z" />
<glyph unicode="&#x2013;" horiz-adv-x="987" d="M730 350q0 145 -70.5 241.5t-177.5 96.5t-179.5 -99.5t-72.5 -245.5q0 -145 70 -241t178 -96t180 98.5t72 245.5z" />
<glyph unicode="&#x2014;" horiz-adv-x="1487" d="M1230 350q0 145 -141 241.5t-354 96.5q-215 0 -360 -99.5t-145 -245.5q0 -145 140.5 -241t356 -96t359.5 98.5t144 245.5z" />
<glyph unicode="&#x2018;" d="M943 350q0 145 -100.5 241.5t-252.5 96.5q-153 0 -256.5 -99.5t-103.5 -245.5q0 -145 100 -241t254 -96t256.5 98.5t102.5 245.5z" />
<glyph unicode="&#x2019;" d="M943 350q0 145 -100.5 241.5t-252.5 96.5q-153 0 -256.5 -99.5t-103.5 -245.5q0 -145 100 -241t254 -96t256.5 98.5t102.5 245.5z" />
<glyph unicode="&#x202f;" horiz-adv-x="138" />
<glyph unicode="&#x205f;" horiz-adv-x="172" />
<glyph unicode="&#x25fc;" horiz-adv-x="690" d="M0 690h690v-690h-690v690z" />
</font>
</defs>
</svg>
